<?xml version="1.0" standalone="no"?>
<!DOCTYPE svg PUBLIC "-//W3C//DTD SVG 1.1//EN" "http://www.w3.org/Graphics/SVG/1.1/DTD/svg11.dtd">
<svg xmlns="http://www.w3.org/2000/svg">
<defs >
<font id="Raleway" horiz-adv-x="550" ><font-face
    font-family="Raleway Thin"
    units-per-em="1000"
    panose-1="0 0 0 0 0 0 0 0 0 0"
    ascent="940"
    descent="-234"
    alphabetic="0" />
<glyph unicode=" " horiz-adv-x="249" />
<glyph unicode="!" horiz-adv-x="248" d="M75 228L178 717H246L143 228H75ZM26 0L50 112H119L94 0H26Z" />
<glyph unicode="&quot;" horiz-adv-x="287" d="M112 522L153 716H213L172 522H112ZM205 522L247 716H306L265 522H205Z" />
<glyph unicode="#" horiz-adv-x="652" d="M648 457H524L438 261H565L554 207H414L323 0H265L358 207H181L90 0H32L125 207H18L29 261H150L235 457H111L123 508H259L348 710H405L315 508H492L580 710H638L548 508H659L648 457ZM381 261L468 457H292L206 261H381Z" />
<glyph unicode="$" horiz-adv-x="594" d="M224 28L260 27L232 -103H196L224 28ZM229 37L364 673L394 678L257 35L229 37ZM391 815H427L399 681L361 676L391 815ZM546 577Q536 594 520 607T482 631T435 647T379 653Q309 653 265 633T200 577T179 497Q179 465 197
446T250 413T339 385Q399 371 442 352T510 303T534 223Q534 166 512 123T451 52T359 9T245 -6Q167 -6 104 19T-5 97L42 154Q56 134 77 117T126 85T188 64T260 56Q351 56 404 94T457 202Q457 237 437 259T378 296T283 326Q226 341 186 359T124 405T103 475Q103 532
125 576T187 651T279 699T393 715Q438 715 474 706T540 678T591 633L546 577Z" />
<glyph unicode="%" horiz-adv-x="688" d="M212 433Q160 433 128 467T96 551Q96 597 121 635T187 697T273 720Q324 720 356 686T388 602Q388 556 363 518T297 456T212 433ZM220 472Q249 472 276 490T319 536T336 596Q336 632 316 656T264 680Q235 680 208 663T165
617T148 557Q148 521 168 497T220 472ZM439 -10Q388 -10 356 24T323 109Q323 154 349 192T415 254T500 277Q552 277 583 243T615 159Q615 113 590 75T525 14T439 -10ZM447 30Q477 30 503 47T547 92T564 153Q564 188 544 213T491 238Q462 238 435 220T391 174T374
114Q374 79 394 55T447 30ZM7 27L341 363L676 714L704 684L365 340L35 -4L7 27Z" />
<glyph unicode="&amp;" horiz-adv-x="671" d="M185 -10Q136 -10 99 11T40 69T18 155Q18 199 34 236T81 304T151 363T237 418L270 376Q214 344 172 311T108 243T85 163Q85 109 117 78T199 46Q248 46 294 74T381 152T451 270T494 416H556Q539 324 502 246T415 111T305
22T185 -10ZM229 367Q201 408 184 438T159 493T151 540Q151 590 179 630T255 694T358 719Q394 719 425 707T479 671T517 614L470 572Q455 614 422 640T347 666Q312 666 282 650T234 607T215 550Q215 536 220 517T239 474T276 415L566 0H480L229 367ZM504 416H654L642
361H493L504 416Z" />
<glyph unicode="&apos;" horiz-adv-x="193" d="M112 521L153 716H213L172 521H112Z" />
<glyph unicode="(" horiz-adv-x="263" d="M44 260Q44 348 74 427T157 582T272 739L318 714Q289 679 253 628T184 517T130 392T109 267Q109 226 115 178T134 82T163 -10L107 -37Q88 8 74 58T52 160T44 260Z" />
<glyph unicode=")" horiz-adv-x="263" d="M239 432Q239 370 223 311T176 193T104 78T13 -37L-32 -10Q29 63 75 135T147 279T173 424Q173 476 165 531T145 635T120 714L178 739Q204 667 221 588T239 432Z" />
<glyph unicode="*" horiz-adv-x="313" d="M135 546L189 608L129 630L147 666L208 640L221 713H262L244 640L317 666L319 630L249 608L278 546L242 524L216 589L161 524L135 546Z" />
<glyph unicode="+" horiz-adv-x="414" d="M372 383V327H248V192H185V327H61V383H185V518H248V383H372Z" />
<glyph unicode="," horiz-adv-x="208" d="M4 -81L39 3H16L36 98H101L81 3L39 -81H4Z" />
<glyph unicode="-" horiz-adv-x="405" d="M51 241L64 304H342L329 241H51Z" />
<glyph unicode="." horiz-adv-x="188" d="M2 0L23 98H81L60 0H2Z" />
<glyph unicode="/" horiz-adv-x="599" d="M651 710L51 0H-26L575 710H651Z" />
<glyph unicode="0" horiz-adv-x="592" d="M230 -10Q173 -10 132 20T69 102T46 221Q46 299 71 367T141 487T241 568T359 597Q416 597 457 567T520 485T543 365Q543 287 517 219T448 100T348 19T230 -10ZM243 54Q289 54 330 77T404 142T454 239T473 358Q473 436
440 484T346 533Q299 533 257 510T183 444T133 347T115 228Q115 150 149 102T243 54Z" />
<glyph unicode="1" horiz-adv-x="410" d="M16 62H151L242 490Q231 478 210 464T164 438T113 418T69 410L83 476Q106 476 134 489T190 519T236 551T259 571H328L220 62H341L328 0H3L16 62Z" />
<glyph unicode="2" horiz-adv-x="503" d="M-17 0Q-9 34 3 68T39 137T101 202T195 262Q238 281 275 299T340 336T384 378T400 433Q400 455 390 474T356 507T296 520Q266 520 240 511T193 489T155 461T129 437L95 486Q102 492 122 507T171 540T239 569T321 581Q372
581 406 563T459 516T477 450Q477 406 459 374T411 318T345 275T271 239Q239 225 209 205T152 160T106 111T78 62H406L393 0H-17Z" />
<glyph unicode="3" horiz-adv-x="510" d="M150 -147Q79 -147 31 -117T-34 -32L21 11Q32 -32 67 -58T163 -85Q219 -85 260 -64T324 -5T348 87Q348 141 313 173T211 205H187L199 263H225Q281 263 321 283T383 338T405 416Q405 463 374 488T292 514Q239 514 193 489T115
418L81 460Q104 495 140 521T221 561T312 576Q389 576 433 536T478 429Q478 383 457 342T399 272T315 236Q364 227 391 189T419 95Q419 25 384 -30T288 -116T150 -147Z" />
<glyph unicode="4" horiz-adv-x="527" d="M287 51H-28L-15 111L420 571H466L368 113H452L439 51H355L317 -127H249L287 51ZM307 113L382 464L58 113H307Z" />
<glyph unicode="5" horiz-adv-x="526" d="M157 -149Q85 -149 35 -112T-31 -13L21 21Q37 -28 76 -58T170 -88Q210 -88 247 -73T313 -29T359 36T376 117Q376 177 341 214T249 251Q205 251 162 231T86 171H23Q27 180 40 212T71 290T108 383T145 475T173 544T184 571H510L496
508H221L121 253Q151 281 189 296T269 312Q323 312 363 289T425 225T447 130Q447 69 423 18T358 -70T264 -128T157 -149Z" />
<glyph unicode="6" horiz-adv-x="588" d="M238 -10Q295 -10 348 13T443 76T509 167T534 277Q534 333 511 377T446 448T348 474Q305 474 264 459T188 414T131 345Q152 440 189 509T277 617T385 655Q438 655 474 625T520 543L572 583Q557 644 511 679T399 715Q321
715 256 674T145 563T73 402T48 212Q48 109 98 50T238 -10ZM251 50Q211 50 180 70T131 125T113 202Q113 244 131 283T180 353T249 400T329 418Q370 418 401 398T449 343T467 266Q467 223 449 184T400 115T331 67T251 50Z" />
<glyph unicode="7" horiz-adv-x="514" d="M436 520H76L89 583H558L66 -127H-11L436 520Z" />
<glyph unicode="8" horiz-adv-x="570" d="M217 -8Q158 -8 115 15T48 79T24 167Q24 223 51 265T120 337T200 380Q166 397 143 429T119 504Q119 554 142 591T203 656T285 696T372 710Q417 710 457 693T524 642T550 559Q550 515 529 481T473 421T402 380Q445 363
473 323T502 229Q502 177 478 134T413 58T322 9T217 -8ZM233 53Q267 53 302 65T366 101T414 156T433 227Q433 266 413 294T361 336T294 351Q260 351 225 339T161 303T113 248T95 177Q95 138 115 111T167 68T233 53ZM307 405Q334 405 364 414T420 442T462 487T479
548Q479 580 463 602T419 636T358 648Q317 648 278 631T213 582T187 507Q187 475 204 452T250 417T307 405Z" />
<glyph unicode="9" horiz-adv-x="571" d="M173 -155Q251 -155 315 -114T426 -2T498 159T524 349Q524 451 473 510T334 570Q277 570 224 548T128 485T62 393T37 283Q37 228 60 183T126 112T223 86Q267 86 308 102T383 147T440 216Q420 120 383 51T295 -56T187 -94Q134
-94 98 -64T52 17L0 -22Q15 -84 61 -119T173 -155ZM242 142Q202 142 171 162T121 217T103 294Q103 337 122 376T172 445T241 493T320 511Q361 511 392 491T441 436T459 359Q459 316 441 277T391 208T322 160T242 142Z" />
<glyph unicode=":" horiz-adv-x="185" d="M88 420L109 518H167L146 420H88ZM-1 0L21 98H78L57 0H-1Z" />
<glyph unicode=";" horiz-adv-x="190" d="M90 420L110 518H168L147 420H90ZM-10 -81L24 3H1L21 98H86L66 3L24 -81H-10Z" />
<glyph unicode="&lt;" horiz-adv-x="545" d="M30 276L449 528V455L129 259L449 64V-11L30 239V276Z" />
<glyph unicode="=" horiz-adv-x="471" d="M79 194V243H380V194H79ZM79 309V358H380V309H79Z" />
<glyph unicode="&gt;" horiz-adv-x="545" d="M496 239L77 -11V64L397 259L77 455V528L496 276V239Z" />
<glyph unicode="?" horiz-adv-x="458" d="M124 202Q134 246 149 277T186 332T240 372Q265 386 294 400T349 434T393 485T410 559Q410 610 380 636T307 662Q274 662 242 649T182 612T135 560L95 590Q121 631 158 660T237 704T320 719Q361 719 395 703T451 653T472
568Q472 518 458 484T420 426T365 385T301 350Q276 337 253 321T211 278T182 202H124ZM83 0L106 107H163L141 0H83Z" />
<glyph unicode="@" horiz-adv-x="803" d="M560 21Q592 21 619 48T665 118T695 210T706 301Q706 355 689 403T639 488T559 547T451 569Q378 569 308 537T182 449T93 320T60 162Q60 85 90 23T177 -76T309 -112Q348 -112 385 -102T461 -74L466 -106Q424 -126 382
-136T299 -146Q219 -146 157 -107T60 1T25 159Q25 235 49 302T117 425T217 520T335 581T459 603Q524 603 576 580T666 516T722 423T741 311Q741 276 734 233T712 146T674 66T620 7T548 -16Q520 -16 503 -2T485 48Q485 54 485 61T487 76Q454 44 410 24T321 3Q274
3 240 27T187 92T168 183Q168 236 188 285T242 372T319 433T409 455Q460 455 494 429T543 362L561 450H606L531 99Q529 85 528 76T526 60Q526 40 535 31T560 21ZM341 44Q373 44 405 59T463 100T500 156L529 310Q513 362 481 387T407 413Q373 413 339 396T277 349T233
280T216 195Q216 151 232 117T277 64T341 44Z" />
<glyph unicode="A" horiz-adv-x="651" d="M386 710H446L574 0H500L461 222H162L30 0H-45L386 710ZM457 277L399 628L188 277H457Z" />
<glyph unicode="B" horiz-adv-x="641" d="M175 710H501Q541 710 567 689T607 635T621 565Q621 523 604 483T556 413T484 364Q528 349 552 310T576 220Q576 173 557 133T504 63T429 17T342 0H24L175 710ZM355 61Q384 61 411 74T460 110T494 162T507 221Q507 251
497 275T467 315T419 330H163L106 61H355ZM405 387Q433 387 459 400T505 435T537 486T549 546Q549 589 527 619T466 649H231L175 387H405Z" />
<glyph unicode="C" horiz-adv-x="656" d="M303 -6Q240 -6 193 19T113 86T64 181T47 289Q47 349 65 409T119 525T202 622T312 689T445 714Q541 714 596 670T669 559L610 527Q597 575 571 602T510 640T436 651Q360 651 301 619T201 534T139 419T117 295Q117 231
140 177T208 90T316 57Q354 57 395 71T476 114T545 189L597 159Q563 104 513 67T409 12T303 -6Z" />
<glyph unicode="D" horiz-adv-x="690" d="M175 710H405Q494 710 551 674T636 576T664 438Q664 344 633 264T547 125T417 33T254 0H24L175 710ZM267 62Q342 62 402 92T505 173T569 289T592 427Q592 492 570 541T503 619T391 648H231L106 62H267Z" />
<glyph unicode="E" horiz-adv-x="582" d="M175 710H620L607 648H231L176 392H504L492 333H164L106 62H491L478 0H24L175 710Z" />
<glyph unicode="F" horiz-adv-x="572" d="M175 710H617L604 648H231L176 387H491L478 329H163L93 0H24L175 710Z" />
<glyph unicode="G" horiz-adv-x="687" d="M295 -5Q236 -5 190 19T112 86T64 181T47 292Q47 373 79 448T167 584T295 680T447 715Q544 715 598 672T670 560L608 524Q591 589 546 620T433 652Q368 652 311 622T210 540T142 425T117 296Q117 231 141 177T209 91T314
58Q374 58 435 90T562 191L546 117Q485 55 422 25T295 -5ZM573 295H425L436 349H644L570 0H510L573 295Z" />
<glyph unicode="H" horiz-adv-x="709" d="M175 710H244L177 394H572L639 710H709L558 0H488L559 332H164L93 0H24L175 710Z" />
<glyph unicode="I" horiz-adv-x="245" d="M175 709H244L93 0H24L175 709Z" />
<glyph unicode="J" horiz-adv-x="468" d="M102 -11Q57 -11 24 0T-37 33L-6 89Q11 75 42 63T115 51Q166 51 200 71T257 129T297 222T329 349L406 709H476L399 349Q381 267 360 201T307 87T226 14T102 -11Z" />
<glyph unicode="K" horiz-adv-x="615" d="M175 709H244L156 297L611 710H689L347 398L552 0H475L295 357L140 218L93 0H24L175 709Z" />
<glyph unicode="L" horiz-adv-x="557" d="M175 710H244L106 62H494L481 0H24L175 710Z" />
<glyph unicode="M" horiz-adv-x="840" d="M175 710H247L404 224L768 710H840L689 0H619L743 583L405 132H364L218 583L93 0H24L175 710Z" />
<glyph unicode="N" horiz-adv-x="740" d="M175 710H229L545 119L670 709H739L588 0H529L216 580L93 0H24L175 710Z" />
<glyph unicode="O" horiz-adv-x="722" d="M298 -5Q236 -5 189 19T110 84T62 177T46 287Q46 353 67 416T127 533T216 628T326 692T448 715Q510 715 557 691T635 625T682 531T698 421Q698 356 677 294T618 177T530 82T420 18T298 -5ZM312 58Q378 58 435 89T536 173T603
288T628 416Q628 479 606 532T542 618T434 651Q368 651 310 621T209 538T142 422T117 293Q117 230 139 177T204 91T312 58Z" />
<glyph unicode="P" horiz-adv-x="599" d="M175 710H453Q503 710 539 684T594 615T613 526Q613 478 594 431T540 346T460 285T365 262H149L93 0H24L175 710ZM374 324Q409 324 439 341T493 386T529 449T542 520Q542 557 529 585T492 631T437 648H231L162 324H374Z" />
<glyph unicode="Q" horiz-adv-x="721" d="M298 -5Q236 -5 189 19T110 84T62 177T46 287Q46 353 67 416T127 533T216 628T326 692T448 715Q510 715 557 691T635 625T682 531T698 421Q698 356 677 294T618 177T530 82T420 18T298 -5ZM531 0L400 218H469L601 0H531ZM312
58Q378 58 435 89T536 173T603 288T628 416Q628 479 606 533T542 619T434 652Q368 652 310 621T209 538T142 422T117 293Q117 230 139 177T204 91T312 58Z" />
<glyph unicode="R" horiz-adv-x="628" d="M24 0L175 710H460Q510 710 545 684T600 615T619 525Q619 482 604 441T561 365T497 306T419 274L526 0H447L345 262H149L93 0H24ZM381 324Q415 324 445 341T498 386T534 448T547 517Q547 553 534 582T498 630T443 648H231L162
324H381Z" />
<glyph unicode="S" horiz-adv-x="585" d="M243 -6Q164 -6 102 19T-9 97L38 154Q52 135 73 118T122 86T183 64T257 56Q317 56 361 73T429 122T453 200Q453 238 433 260T374 297T279 326Q221 342 181 359T120 404T99 477Q99 532 121 576T182 651T273 698T386 715Q431
715 468 706T535 678T587 633L542 577Q532 594 515 607T477 631T429 647T373 653Q306 653 262 633T197 577T175 498Q175 465 192 445T245 412T335 385Q397 370 440 351T507 302T530 221Q530 163 508 120T446 49T355 8T243 -6Z" />
<glyph unicode="T" horiz-adv-x="582" d="M328 648H90L103 710H650L637 648H398L260 0H191L328 648Z" />
<glyph unicode="U" horiz-adv-x="724" d="M298 -5Q216 -5 167 27T96 112T75 230Q75 260 78 290T89 352L165 710H234L158 352Q152 324 149 296T145 241Q145 190 160 149T211 83T309 58Q373 58 420 83T501 151T555 245T588 352L664 710H733L658 352Q643 280 614
216T540 102T436 24T298 -5Z" />
<glyph unicode="V" horiz-adv-x="648" d="M97 710H170L276 87L645 710H718L288 0H226L97 710Z" />
<glyph unicode="W" horiz-adv-x="997" d="M95 710H170L278 81L473 402L420 705H486L526 453L675 705H741L559 402L618 81L992 710H1069L632 0H572L506 351L290 0H229L95 710Z" />
<glyph unicode="X" horiz-adv-x="604" d="M274 350L92 710H171L324 400L608 710H685L350 350L526 0H449L302 300L28 0H-51L274 350Z" />
<glyph unicode="Y" horiz-adv-x="607" d="M257 266L91 710H168L305 328L605 710H681L325 264L269 0H200L257 266Z" />
<glyph unicode="Z" horiz-adv-x="596" d="M-24 55L556 648H110L123 710H651L639 655L65 62H512L499 0H-36L-24 55Z" />
<glyph unicode="[" horiz-adv-x="251" d="M14 -40L180 740H296L284 683H231L89 17H143L131 -40H14Z" />
<glyph unicode="\" horiz-adv-x="534" d="M184 710L446 0H370L107 710H184Z" />
<glyph unicode="]" horiz-adv-x="250" d="M-25 -40L-13 17H40L182 683H129L141 740H257L92 -40H-25Z" />
<glyph unicode="^" horiz-adv-x="541" d="M52 303L250 710H308L505 303H445L279 646L110 303H52Z" />
<glyph unicode="_" horiz-adv-x="492" d="M-14 -62L-1 0H361L348 -62H-14Z" />
<glyph unicode="`" horiz-adv-x="228" d="M150 730H220L257 637L209 620L150 730Z" />
<glyph unicode="a" horiz-adv-x="598" d="M210 -10Q153 -10 111 20T47 100T25 208Q25 270 48 327T112 430T205 503T314 530Q377 530 418 496T476 412L500 521H568L476 89Q475 86 475 83T474 76Q474 60 493 60L480 0Q472 -1 466 -2T453 -3Q430 -2 419 9T407 37Q407
43 408 50T411 69T418 101Q378 50 322 20T210 -10ZM238 50Q263 50 291 60T347 87T395 129T427 179L460 340Q456 376 436 405T386 452T320 470Q275 470 235 448T164 389T114 308T96 218Q96 172 114 134T163 73T238 50Z" />
<glyph unicode="b" horiz-adv-x="592" d="M254 -10Q191 -10 150 22T91 101L69 0H9L164 730H232L164 412Q208 465 261 497T375 530Q434 530 473 500T531 420T551 317Q551 251 526 193T459 88T363 16T254 -10ZM252 50Q295 50 336 71T409 128T460 210T479 305Q479
348 463 386T418 447T343 470Q306 470 271 453T205 406T149 343L113 170Q115 136 134 109T184 66T252 50Z" />
<glyph unicode="c" horiz-adv-x="526" d="M225 -10Q162 -10 117 20T49 100T25 211Q25 274 49 331T115 433T214 504T336 530Q408 530 453 497T513 406L443 385Q430 426 400 448T326 470Q282 470 241 451T167 396T115 316T95 220Q95 171 112 133T161 73T233 50Q265
50 297 62T356 94T394 139L457 119Q436 82 399 53T317 7T225 -10Z" />
<glyph unicode="d" horiz-adv-x="598" d="M211 -10Q153 -10 111 20T47 100T25 208Q25 270 48 327T112 430T205 503T315 530Q377 530 418 496T476 412L544 730H612L476 89Q475 85 475 82T474 77Q474 60 493 60L480 0Q472 -1 465 -2T452 -2Q430 -1 419 10T407 38Q407
43 408 49T411 68T418 101Q378 50 322 20T211 -10ZM239 50Q263 50 291 60T347 87T395 129T427 179L460 340Q456 376 435 405T384 452T320 470Q275 470 235 448T163 390T114 309T96 219Q96 172 113 134T163 73T239 50Z" />
<glyph unicode="e" horiz-adv-x="535" d="M229 -10Q165 -10 120 19T51 99T26 211Q26 273 48 330T112 432T210 503T332 530Q381 530 420 514T481 467T504 389Q505 310 437 273T227 235Q196 235 159 236T73 242L83 290Q131 287 165 286T230 284Q310 284 356 296T422
333T442 389Q442 420 426 439T385 468T327 477Q275 477 233 455T159 395T112 310T95 214Q96 167 112 128T160 66T241 42Q293 42 338 68T410 139L466 122Q443 83 406 54T324 7T229 -10Z" />
<glyph unicode="f" horiz-adv-x="322" d="M130 467H62L73 521H142L144 535Q157 599 184 645T251 715T335 740Q364 740 389 731T433 707L402 658Q392 669 374 675T336 681Q292 681 260 644T213 537L210 521H345L334 467H198L54 -212H-14L130 467Z" />
<glyph unicode="g" horiz-adv-x="592" d="M165 -223Q81 -223 35 -191T-33 -105L15 -72Q35 -121 76 -145T176 -169Q223 -169 267 -151T343 -95T387 -2L409 101Q370 52 315 23T205 -7Q149 -7 108 23T46 102T24 208Q24 270 47 327T112 430T206 503T318 530Q382 530
421 496T483 412L506 521H566L455 -2Q440 -74 397 -123T292 -198T165 -223ZM237 50Q266 50 295 61T350 90T396 132T426 179L460 340Q455 378 435 407T384 453T319 470Q272 470 232 448T160 388T112 306T94 219Q94 173 112 135T162 73T237 50Z" />
<glyph unicode="h" horiz-adv-x="559" d="M164 730H232L162 403Q204 461 263 495T384 530Q426 530 452 514T491 468T503 397Q503 377 501 354T492 305L428 0H360L422 291Q426 313 428 332T431 367Q431 417 410 442T346 468Q311 468 272 449T199 396T144 319L77
0H9L164 730Z" />
<glyph unicode="i" horiz-adv-x="213" d="M119 521H187L77 0H9L119 521ZM164 730H232L211 630H143L164 730Z" />
<glyph unicode="j" horiz-adv-x="220" d="M-103 -181Q-135 -181 -160 -172T-204 -142L-161 -96Q-149 -110 -132 -115T-97 -120Q-76 -120 -53 -108T-13 -75T9 -27L126 521H194L78 -23Q69 -69 40 -105T-27 -161T-103 -181ZM170 730H238L216 630H148L170 730Z" />
<glyph unicode="k" horiz-adv-x="536" d="M246 255Q346 276 397 321T449 417Q449 447 432 461T385 475Q340 475 292 446T199 364T123 243L142 353Q178 405 219 445T306 508T402 531Q457 531 484 503T512 426Q512 361 465 309T327 226L444 0H370L246 255ZM164 730H232L77
0H9L164 730Z" />
<glyph unicode="l" horiz-adv-x="264" d="M107 -6Q70 -6 49 13T28 67Q28 74 29 81T32 95L166 730H234L104 118Q103 113 103 109T102 100Q102 56 149 56Q160 56 175 59T204 67L202 12Q183 4 156 -1T107 -6Z" />
<glyph unicode="m" horiz-adv-x="878" d="M119 521H182L156 403Q198 462 255 496T370 530Q409 530 436 514T476 468T489 394Q519 439 554 469T629 514T708 530Q750 530 775 515T812 470T824 402Q824 380 821 356T812 305L747 0H679L740 291Q750 338 750 372Q750
421 730 444T671 468Q634 468 598 449T531 397T479 318L412 0H344L405 291Q411 316 413 336T416 374Q416 422 396 445T337 468Q282 468 230 427T144 319L77 0H9L119 521Z" />
<glyph unicode="n" horiz-adv-x="559" d="M119 521H182L156 403Q184 441 222 469T305 514T392 530Q433 530 457 515T493 473T505 406Q505 383 502 358T492 305L428 0H360L422 291Q427 316 429 337T432 376Q432 423 413 445T354 468Q317 468 277 449T201 396T144
319L77 0H9L119 521Z" />
<glyph unicode="o" horiz-adv-x="573" d="M226 -10Q158 -10 113 19T46 99T24 209Q24 275 48 333T115 435T212 505T329 530Q396 530 441 500T509 421T531 310Q531 244 507 186T441 84T343 15T226 -10ZM238 50Q280 50 320 68T391 121T442 200T461 300Q461 348 445
386T397 447T317 470Q275 470 235 451T164 398T113 318T94 218Q94 170 110 132T159 72T238 50Z" />
<glyph unicode="p" horiz-adv-x="593" d="M120 521H180L159 420Q199 469 254 499T366 530Q424 530 465 500T529 419T551 311Q551 250 528 193T465 89T373 17T262 -10Q200 -10 159 24T100 108L32 -213H-36L120 521ZM256 50Q301 50 341 72T413 130T462 211T480 300Q480
347 463 385T413 447T337 470Q313 470 285 460T229 432T180 390T149 341L115 181Q122 144 141 115T190 68T256 50Z" />
<glyph unicode="q" horiz-adv-x="592" d="M411 108Q363 50 309 20T198 -10Q142 -10 103 19T44 97T24 204Q24 268 49 327T117 431T214 503T324 530Q382 530 424 499T484 419L505 521H566L411 -213H343L411 108ZM232 50Q270 50 305 66T370 111T425 173L460 339Q459
373 441 403T393 452T326 470Q280 470 239 448T165 390T114 308T95 215Q95 170 111 132T158 72T232 50Z" />
<glyph unicode="r" horiz-adv-x="343" d="M119 521H183L156 396Q195 452 245 486T345 522Q353 522 359 522T369 520L356 461Q292 459 235 423T145 324L77 0H9L119 521Z" />
<glyph unicode="s" horiz-adv-x="468" d="M175 -10Q114 -10 63 10T-20 68L20 114Q54 78 94 61T181 44Q226 44 260 57T313 95T333 153Q333 191 301 206T206 239Q159 253 127 265T80 297T64 352Q64 407 93 446T173 508T285 530Q344 530 386 510T451 459L409 419Q388
449 355 463T279 477Q240 477 206 465T152 429T131 368Q131 335 155 322T236 293Q289 278 326 263T383 224T402 163Q402 112 374 73T294 12T175 -10Z" />
<glyph unicode="t" horiz-adv-x="321" d="M48 69Q48 75 49 81T51 94L130 467H61L73 521H141L179 697H247L209 521H323L311 467H198L126 128Q123 117 122 111T121 100Q121 78 135 68T169 57Q188 57 204 62T232 72T249 80L255 25Q246 20 228 12T186 -1T135 -6Q98
-6 73 12T48 69Z" />
<glyph unicode="u" horiz-adv-x="569" d="M159 -10Q37 -10 37 124Q37 144 40 166T48 215L114 521H181L119 227Q109 182 109 149Q109 50 195 50Q233 50 271 67T343 117T401 193L471 521H539L448 96Q447 90 446 85T445 77Q445 60 464 60L451 0Q443 -1 436 -2T423
-2Q402 -1 391 9T380 37Q380 42 381 49T385 73T394 118Q348 58 286 24T159 -10Z" />
<glyph unicode="v" horiz-adv-x="491" d="M58 521H129L193 63Q236 119 273 176T340 292T393 408T432 521H498Q460 391 389 260T214 0H141L58 521Z" />
<glyph unicode="w" horiz-adv-x="755" d="M53 521H123L207 63Q247 110 281 160T344 261L284 521H354L392 348Q413 392 430 435T459 521H524Q506 457 478 392T412 262L455 63Q490 107 521 153T578 245T627 338T667 431T697 521H763Q725 391 653 260T476 0H403L363
184Q334 137 301 91T228 0H155L53 521Z" />
<glyph unicode="x" horiz-adv-x="481" d="M194 259L61 521H134L236 317L240 302L251 316L441 521H514L270 259L403 0H330L228 203L222 217L212 204L24 0H-50L194 259Z" />
<glyph unicode="y" horiz-adv-x="485" d="M-36 -169Q6 -162 32 -151T79 -117T125 -57L158 -8L51 521H122L206 63L247 130Q290 200 320 253T371 350T407 435T434 521H501Q488 473 473 431T435 344T379 241T295 103L214 -26Q180 -81 151 -118T95 -178T38 -211T-27
-224L-36 -169Z" />
<glyph unicode="z" horiz-adv-x="466" d="M-26 46L393 470H72L83 521H480L471 475L54 51H381L369 0H-35L-26 46Z" />
<glyph unicode="{" horiz-adv-x="251" d="M233 683L177 422Q175 410 166 392T138 360Q146 351 149 339T152 315Q152 311 152 307T151 298L93 26H145L133 -31H40Q34 -31 29 -27T24 -12Q24 -10 24 -7T25 -1L85 280Q86 284 86 288T86 296Q86 311 80 322T59 335L70
387Q84 387 94 396T110 419T119 440L176 710Q180 729 190 734T204 740H297L285 683H233Z" />
<glyph unicode="|" horiz-adv-x="288" d="M119 -130V775H179V-130H119Z" />
<glyph unicode="}" horiz-adv-x="250" d="M129 683L140 740H233Q237 740 243 736T250 719Q250 713 249 710L191 440Q190 437 190 434T189 427Q189 413 195 400T217 387L206 335Q187 333 174 317T157 280L98 -1Q94 -18 85 -24T69 -31H-24L-12 26H41L99 298Q101
310 110 328T137 360Q130 370 127 381T123 404Q123 410 123 414T125 422L181 683H129Z" />
<glyph unicode="~" horiz-adv-x="492" d="M51 241Q52 246 60 262T84 297T121 330T172 344Q202 344 225 330T270 301T319 286Q344 286 360 298T385 323T394 338H436Q435 336 427 321T404 288T366 255T310 241Q278 241 254 255T209 284T164 299Q141 299 126 285T102
257T94 241H51Z" />
<glyph unicode="&#xa0;" horiz-adv-x="249" />
<glyph unicode="&#xa1;" horiz-adv-x="247" d="M197 487L93 -2H25L129 487H197ZM245 715L222 603H152L177 715H245Z" />
<glyph unicode="&#xa2;" horiz-adv-x="540" d="M176 -120L200 -9Q146 -4 108 28T49 109T29 211Q29 267 50 321T110 420T200 494T314 529L339 645H375L350 529Q420 527 461 495T518 406L448 385Q435 426 406 446T337 468L249 51Q273 52 303 63T360 94T399 139L462
119Q438 77 398 48T314 5T236 -10L212 -120H176ZM99 218Q99 178 113 143T152 84T213 54L300 466Q257 462 221 438T157 378T114 301T99 218Z" />
<glyph unicode="&#xa3;" horiz-adv-x="478" d="M68 372H390L378 318H56L68 372ZM0 42Q51 86 83 119T133 180T159 235T167 294Q167 335 157 371T136 443T125 514Q125 555 143 591T191 655T260 699T339 715Q390 715 430 687T490 610L442 568Q428 609 396 633T325
658Q290 658 259 639T208 587T188 516Q188 483 198 450T218 381T229 301Q229 271 224 245T203 192T158 131T82 54Q101 58 119 60T153 63Q180 63 200 59T241 50T284 45Q303 45 324 49T372 63L378 11Q351 -2 323 -8T268 -15Q240 -15 216 -9T168 3T114 9Q92 9 63 4T7
-8L0 42Z" />
<glyph unicode="&#xa4;" horiz-adv-x="562" d="M175 480Q197 499 225 509T287 519Q320 519 348 509T400 480L470 551L504 518L432 446Q449 424 458 396T467 336Q467 306 458 278T431 226L504 154L474 125L400 194Q378 177 349 166T287 155Q253 155 225 165T173
194L101 125L72 154L143 225Q107 275 107 336Q107 367 116 395T142 447L72 518L105 551L175 480ZM164 335Q164 298 180 268T225 221T287 203Q321 203 348 221T393 270T410 337Q410 375 393 405T349 452T287 470Q254 470 226 453T181 404T164 335Z" />
<glyph unicode="&#xa5;" horiz-adv-x="650" d="M426 366H506L496 318H389L346 264L340 237H479L469 189H330L290 0H220L260 189H123L134 237H271L277 266L258 318H151L161 366H243L113 710H189L325 328L625 710H702L426 366Z" />
<glyph unicode="&#xa6;" horiz-adv-x="282" d="M176 277V-130H116V277H176ZM176 775V368H116V775H176Z" />
<glyph unicode="&#xa7;" horiz-adv-x="489" d="M378 195Q404 175 404 124Q404 70 381 30T322 -36T245 -75T169 -88Q125 -88 92 -74T36 -39T-2 3L52 45Q79 10 109 -6T180 -23Q206 -23 232 -14T281 11T318 52T332 107Q332 137 317 152T278 172T231 179Q161 183 118
215T74 311Q74 336 81 358T100 398T122 427Q110 438 102 461T94 512Q94 557 114 594T169 658T242 700T322 715Q358 715 384 707T428 686T458 655T478 620L420 595Q413 617 396 630T357 648T312 653Q286 653 260 644T213 618T178 577T164 522Q164 478 193 461T268
442Q309 442 346 430T406 390T430 315Q430 291 423 268T404 226T378 195ZM140 311Q140 281 153 265T188 241T233 230T281 225T319 215Q338 228 351 253T364 304Q364 335 348 352T307 378T259 386Q236 386 216 389T181 400Q166 387 153 363T140 311Z" />
<glyph unicode="&#xa8;" horiz-adv-x="302" d="M129 633L149 727H207L187 633H129ZM273 633L293 727H350L331 633H273Z" />
<glyph unicode="&#xa9;" horiz-adv-x="845" d="M433 -7Q354 -7 287 20T171 96T94 211T66 355Q66 432 93 498T170 612T287 688T433 715Q512 715 579 688T696 613T774 498T802 355Q802 277 775 211T697 96T579 20T433 -7ZM433 26Q503 26 564 49T670 116T741 220T767
353Q767 423 742 483T672 588T566 657T433 682Q362 682 301 658T195 589T125 484T100 354Q100 284 125 225T195 120T300 51T433 26ZM440 123Q394 123 353 139T278 186T226 259T207 355Q207 397 221 438T263 514T334 568T434 589Q500 589 552 561T626 478L561 457Q548
487 526 502T479 523T434 529Q395 529 365 514T316 474T287 418T277 355Q277 313 291 281T329 227T381 194T437 182Q462 182 488 191T535 218T568 258L633 239Q624 215 598 188T532 142T440 123Z" />
<glyph unicode="&#xaa;" horiz-adv-x="414" d="M167 346Q125 346 100 371T75 436Q75 475 97 503T157 548T242 565Q268 565 293 560T337 546L343 574Q345 582 345 588T346 600Q346 633 327 651T271 669Q246 669 216 658T153 627L142 664Q218 710 283 710Q340 710
370 684T401 609Q401 599 400 589T397 568L364 423Q363 421 363 419T363 415Q363 402 378 401L368 352Q358 351 351 352T340 357Q324 358 317 364T309 383Q310 388 311 394T313 410Q284 380 246 363T167 346ZM191 389Q217 389 244 399T292 426T317 460L328 512Q310
521 288 525T244 529Q196 529 163 507T129 448Q129 422 145 406T191 389Z" />
<glyph unicode="&#xab;" horiz-adv-x="553" d="M36 276L310 454L298 395L88 259L240 125L227 66L28 239L36 276ZM249 276L524 454L511 395L301 259L454 125L441 66L242 239L249 276Z" />
<glyph unicode="&#xac;" horiz-adv-x="562" d="M506 364L454 126H396L433 302H72L86 364H506Z" />
<glyph unicode="&#xad;" horiz-adv-x="548" d="M51 241L64 304H484L471 241H51Z" />
<glyph unicode="&#xae;" horiz-adv-x="845" d="M433 -7Q354 -7 287 20T171 96T94 211T66 355Q66 432 93 498T170 612T287 688T433 715Q513 715 580 688T697 613T774 498T802 355Q802 277 775 211T697 96T580 20T433 -7ZM433 25Q527 25 602 66T722 182T766 354Q766
424 742 484T672 588T566 657T433 682Q362 682 301 658T196 589T127 484T102 355Q102 285 126 225T195 120T301 50T433 25ZM281 580H472Q511 580 541 559T589 505T606 437Q606 405 593 377T558 328T504 302L615 127H557L450 295H333V127H281V580ZM471 341Q512 341
533 369T555 437Q555 479 530 505T468 532H333V341H471Z" />
<glyph unicode="&#xaf;" horiz-adv-x="375" d="M135 662L145 709H420L410 662H135Z" />
<glyph unicode="&#xb0;" horiz-adv-x="259" d="M181 558Q153 558 135 576T117 623Q117 648 130 671T167 709T217 724Q246 724 263 705T281 657Q281 630 267 608T231 572T181 558ZM190 597Q208 597 225 612T242 649Q242 666 233 675T209 684Q189 684 173 669T157
633Q157 617 166 607T190 597Z" />
<glyph unicode="&#xb1;" horiz-adv-x="484" d="M68 61V118H390V61H68ZM390 393V336H260V196H198V336H68V393H198V533H260V393H390Z" />
<glyph unicode="&#xb2;" horiz-adv-x="374" d="M58 407Q69 459 89 493T141 551T217 590Q243 600 270 609T320 631T357 661T371 706Q371 732 354 749T295 767Q264 767 237 758T189 735T157 709L134 743Q141 751 163 767T221 797T304 811Q364 811 392 784T421 715Q421
684 410 661T377 619T325 588T259 563Q215 548 189 529T152 489T136 450H367L358 407H58Z" />
<glyph unicode="&#xb3;" horiz-adv-x="374" d="M203 402Q145 402 110 426T74 491L106 514Q106 487 132 464T211 441Q245 441 273 452T320 483T338 526Q338 557 304 574T212 591H190L198 632H220Q286 632 325 651T364 709Q364 737 339 753T278 770Q238 770 207
755T156 714L133 748Q149 768 173 782T226 803T286 811Q343 811 378 784T413 716Q413 677 385 651T305 613Q342 607 362 584T383 528Q383 489 357 461T290 417T203 402Z" />
<glyph unicode="&#xb4;" horiz-adv-x="227" d="M171 620L129 637L205 730H276L171 620Z" />
<glyph unicode="&#xb5;" horiz-adv-x="598" d="M128 521H196L133 227Q129 205 126 186T123 149Q123 50 210 50Q248 50 286 67T358 117T416 193L486 521H554L462 88Q461 85 461 82T460 77Q460 60 480 60L466 0Q455 -1 447 0T433 6Q415 7 405 16T395 39Q396 52 399
69T409 118Q385 83 350 54T274 7T194 -10Q149 -10 126 14T97 75L40 -212H-28L128 521Z" />
<glyph unicode="&#xb6;" horiz-adv-x="579" d="M64 418Q64 506 104 571T217 673T390 710H621L609 656H543L386 -80H327L393 231H324L258 -80H198L265 231Q169 233 117 283T64 418ZM124 431Q124 384 144 352T199 304T276 285L355 656Q283 655 231 626T152 546T124
431ZM484 656H415L335 285H404L484 656Z" />
<glyph unicode="&#xb7;" horiz-adv-x="186" d="M52 246L75 358H133L110 246H52Z" />
<glyph unicode="&#xb8;" horiz-adv-x="294" d="M56 -180Q33 -180 9 -173T-38 -152L-10 -113Q6 -123 20 -129T56 -135Q89 -135 109 -118T129 -71Q129 -50 118 -33T86 0L116 19Q140 -1 155 -23T170 -75Q170 -108 156 -131T116 -167T56 -180Z" />
<glyph unicode="&#xb9;" horiz-adv-x="260" d="M273 451L263 406H70L80 451H157L222 760Q214 752 196 740T157 720T121 711L131 756Q146 756 163 764T196 782T222 801T233 811H278L201 451H273Z" />
<glyph unicode="&#xba;" horiz-adv-x="431" d="M223 346Q179 346 149 366T102 420T86 493Q86 536 103 575T149 644T218 692T300 710Q344 710 375 690T422 637T438 563Q438 521 422 483T375 413T306 364T223 346ZM233 395Q270 395 304 417T359 475T381 555Q381
600 356 630T290 661Q254 661 220 639T165 581T143 500Q143 456 168 426T233 395Z" />
<glyph unicode="&#xbb;" horiz-adv-x="553" d="M498 239L225 66L237 125L446 259L295 395L307 454L506 276L498 239ZM285 239L11 66L24 125L234 259L82 395L94 454L292 276L285 239Z" />
<glyph unicode="&#xbc;" horiz-adv-x="784" d="M256 371L246 326H53L63 371H140L205 680Q197 672 179 660T140 640T104 631L114 676Q129 676 146 684T179 702T205 721T216 731H261L184 371H256ZM0 27L332 361L669 714L697 684L355 338L28 -4L0 27ZM591 0L613 103H396L405
145L689 399H720L666 147H722L712 103H657L635 0H591ZM454 147H624L664 338L454 147Z" />
<glyph unicode="&#xbd;" horiz-adv-x="781" d="M388 0Q399 52 419 86T469 144T543 184Q569 193 595 202T643 224T679 254T693 299Q693 325 676 343T618 361Q588 361 562 351T515 328T484 302L462 337Q468 344 490 360T547 390T628 404Q686 404 714 377T742 308Q742
277 731 254T698 212T648 181T583 156Q540 141 515 122T479 82T463 44H689L680 0H388ZM256 371L246 326H53L63 371H140L205 680Q197 672 179 660T140 640T104 631L114 676Q129 676 146 684T179 702T205 721T216 731H261L184 371H256ZM0 27L332 361L669 714L698
684L355 338L28 -4L0 27Z" />
<glyph unicode="&#xbe;" horiz-adv-x="898" d="M186 321Q151 321 122 331T76 361T57 410L89 433Q89 408 115 385T194 361Q228 361 256 372T303 403T321 446Q321 476 287 493T195 511H173L181 551H203Q269 551 308 570T347 628Q347 656 322 672T261 689Q221 689
190 674T139 633L116 667Q132 687 156 701T209 722T269 730Q326 730 361 703T396 636Q396 596 368 570T288 532Q325 526 345 503T366 448Q366 408 340 380T273 336T186 321ZM114 27L446 361L783 714L811 684L469 338L142 -4L114 27ZM705 0L727 103H510L519 145L803
399H834L780 147H836L826 103H771L749 0H705ZM568 147H738L778 338L568 147Z" />
<glyph unicode="&#xbf;" horiz-adv-x="453" d="M311 304Q302 260 287 229T249 175T195 134Q170 120 141 106T86 72T42 22T25 -53Q25 -104 56 -130T128 -156Q161 -156 193 -143T253 -106T300 -54L340 -84Q314 -125 277 -154T198 -198T115 -213Q74 -213 40 -197T-16
-147T-37 -62Q-37 -12 -23 22T15 80T70 121T134 156Q160 170 183 185T225 228T253 304H311ZM352 506L329 399H272L294 506H352Z" />
<glyph unicode="&#xc0;" horiz-adv-x="651" d="M386 710H446L574 0H500L461 222H162L30 0H-45L386 710ZM457 277L399 628L188 277H457ZM335 919H405L442 826L394 809L335 919Z" />
<glyph unicode="&#xc1;" horiz-adv-x="651" d="M386 710H446L574 0H500L461 222H162L30 0H-45L386 710ZM457 277L399 628L188 277H457ZM453 809L411 826L487 919H558L453 809Z" />
<glyph unicode="&#xc2;" horiz-adv-x="651" d="M386 710H446L574 0H500L461 222H162L30 0H-45L386 710ZM457 277L399 628L188 277H457ZM324 825L437 910H486L562 825L520 805L452 868L358 805L324 825Z" />
<glyph unicode="&#xc3;" horiz-adv-x="651" d="M386 710H446L574 0H500L461 222H162L30 0H-45L386 710ZM457 277L399 628L188 277H457ZM501 827Q473 827 456 837T424 857T388 867Q368 867 355 857T337 834T331 819H289Q290 824 297 839T317 870T350 899T397 912Q416
912 430 906T455 891T479 877T509 870Q534 870 548 881T568 905T574 919H616Q615 914 608 900T587 868T552 839T501 827Z" />
<glyph unicode="&#xc4;" horiz-adv-x="651" d="M386 710H446L574 0H500L461 222H162L30 0H-45L386 710ZM457 277L399 628L188 277H457ZM341 822L361 916H419L399 822H341ZM485 822L505 916H562L543 822H485Z" />
<glyph unicode="&#xc5;" horiz-adv-x="651" d="M386 710H446L574 0H500L461 222H162L30 0H-45L386 710ZM457 277L399 628L188 277H457ZM376 841Q376 875 402 897T463 919Q491 919 506 905T521 866Q521 832 496 810T434 788Q408 788 392 803T376 841ZM457 892Q439
892 425 880T410 846Q410 833 418 824T441 815Q457 815 473 828T489 861Q489 875 480 883T457 892Z" />
<glyph unicode="&#xc6;" horiz-adv-x="923" d="M503 710H962L948 648H577L524 393H843L829 331H510L453 62H832L819 0H371L418 222H174L-5 0H-81L503 710ZM427 284L500 626L219 284H427Z" />
<glyph unicode="&#xc7;" horiz-adv-x="656" d="M303 -6Q240 -6 193 19T113 86T64 181T47 289Q47 349 65 409T119 525T202 622T312 689T445 714Q541 714 596 670T669 559L610 527Q597 575 571 602T510 640T436 651Q360 651 301 619T201 534T139 419T117 295Q117
231 140 177T208 90T316 57Q354 57 395 71T476 114T545 189L597 159Q563 104 513 67T409 12T303 -6ZM222 -180Q199 -180 175 -173T128 -152L156 -113Q172 -123 186 -129T222 -135Q255 -135 275 -118T295 -71Q295 -50 284 -33T252 0L282 19Q306 -1 321 -23T336 -75Q336
-108 322 -131T282 -167T222 -180Z" />
<glyph unicode="&#xc8;" horiz-adv-x="582" d="M175 710H620L607 648H231L176 392H504L492 333H164L106 62H491L478 0H24L175 710ZM304 919H374L411 826L363 809L304 919Z" />
<glyph unicode="&#xc9;" horiz-adv-x="582" d="M175 710H620L607 648H231L176 392H504L492 333H164L106 62H491L478 0H24L175 710ZM422 809L380 826L456 919H527L422 809Z" />
<glyph unicode="&#xca;" horiz-adv-x="582" d="M175 710H620L607 648H231L176 392H504L492 333H164L106 62H491L478 0H24L175 710ZM293 825L406 910H455L531 825L489 805L421 868L327 805L293 825Z" />
<glyph unicode="&#xcb;" horiz-adv-x="582" d="M175 710H620L607 648H231L176 392H504L492 333H164L106 62H491L478 0H24L175 710ZM310 822L330 916H388L368 822H310ZM454 822L474 916H531L512 822H454Z" />
<glyph unicode="&#xcc;" horiz-adv-x="245" d="M175 709H244L93 0H24L175 709ZM127 918H197L234 825L186 808L127 918Z" />
<glyph unicode="&#xcd;" horiz-adv-x="245" d="M175 709H244L93 0H24L175 709ZM244 808L202 825L278 918H349L244 808Z" />
<glyph unicode="&#xce;" horiz-adv-x="245" d="M175 709H244L93 0H24L175 709ZM116 824L229 909H278L354 824L312 804L244 867L150 804L116 824Z" />
<glyph unicode="&#xcf;" horiz-adv-x="245" d="M175 709H244L93 0H24L175 709ZM133 821L153 915H211L191 821H133ZM277 821L297 915H354L335 821H277Z" />
<glyph unicode="&#xd0;" horiz-adv-x="697" d="M55 384H342L331 330H43L55 384ZM182 710H412Q501 710 558 674T643 576T671 438Q671 344 640 264T554 125T424 33T261 0H31L182 710ZM274 62Q349 62 409 92T512 173T576 289T599 427Q599 492 577 541T510 619T398
648H238L113 62H274Z" />
<glyph unicode="&#xd1;" horiz-adv-x="740" d="M175 710H229L545 119L670 709H739L588 0H529L216 580L93 0H24L175 710ZM554 825Q526 825 509 835T477 855T441 865Q421 865 408 855T390 832T384 817H342Q343 822 350 837T370 868T403 897T450 910Q469 910 483
904T508 889T532 875T562 868Q587 868 601 879T621 903T627 917H669Q668 912 661 898T640 866T605 837T554 825Z" />
<glyph unicode="&#xd2;" horiz-adv-x="722" d="M298 -5Q236 -5 189 19T110 84T62 177T46 287Q46 353 67 416T127 533T216 628T326 692T448 715Q510 715 557 691T635 625T682 531T698 421Q698 356 677 294T618 177T530 82T420 18T298 -5ZM312 58Q378 58 435 89T536
173T603 288T628 416Q628 479 606 532T542 618T434 651Q368 651 310 621T209 538T142 422T117 293Q117 230 139 177T204 91T312 58ZM371 917H441L478 824L430 807L371 917Z" />
<glyph unicode="&#xd3;" horiz-adv-x="722" d="M298 -5Q236 -5 189 19T110 84T62 177T46 287Q46 353 67 416T127 533T216 628T326 692T448 715Q510 715 557 691T635 625T682 531T698 421Q698 356 677 294T618 177T530 82T420 18T298 -5ZM312 58Q378 58 435 89T536
173T603 288T628 416Q628 479 606 532T542 618T434 651Q368 651 310 621T209 538T142 422T117 293Q117 230 139 177T204 91T312 58ZM489 807L447 824L523 917H594L489 807Z" />
<glyph unicode="&#xd4;" horiz-adv-x="722" d="M298 -5Q236 -5 189 19T110 84T62 177T46 287Q46 353 67 416T127 533T216 628T326 692T448 715Q510 715 557 691T635 625T682 531T698 421Q698 356 677 294T618 177T530 82T420 18T298 -5ZM312 58Q378 58 435 89T536
173T603 288T628 416Q628 479 606 532T542 618T434 651Q368 651 310 621T209 538T142 422T117 293Q117 230 139 177T204 91T312 58ZM360 823L473 908H522L598 823L556 803L488 866L394 803L360 823Z" />
<glyph unicode="&#xd5;" horiz-adv-x="722" d="M298 -5Q236 -5 189 19T110 84T62 177T46 287Q46 353 67 416T127 533T216 628T326 692T448 715Q510 715 557 691T635 625T682 531T698 421Q698 356 677 294T618 177T530 82T420 18T298 -5ZM312 58Q378 58 435 89T536
173T603 288T628 416Q628 479 606 532T542 618T434 651Q368 651 310 621T209 538T142 422T117 293Q117 230 139 177T204 91T312 58ZM536 825Q508 825 491 835T459 855T423 865Q403 865 390 855T372 832T366 817H324Q325 822 332 837T352 868T385 897T432 910Q451
910 465 904T490 889T514 875T544 868Q569 868 583 879T603 903T609 917H651Q650 912 643 898T622 866T587 837T536 825Z" />
<glyph unicode="&#xd6;" horiz-adv-x="722" d="M298 -5Q236 -5 189 19T110 84T62 177T46 287Q46 353 67 416T127 533T216 628T326 692T448 715Q510 715 557 691T635 625T682 531T698 421Q698 356 677 294T618 177T530 82T420 18T298 -5ZM312 58Q378 58 435 89T536
173T603 288T628 416Q628 479 606 532T542 618T434 651Q368 651 310 621T209 538T142 422T117 293Q117 230 139 177T204 91T312 58ZM377 820L397 914H455L435 820H377ZM521 820L541 914H598L579 820H521Z" />
<glyph unicode="&#xd7;" horiz-adv-x="468" d="M392 151L348 108L226 229L105 108L62 152L182 272L63 393L107 436L226 316L347 437L390 393L270 272L392 151Z" />
<glyph unicode="&#xd8;" horiz-adv-x="722" d="M298 -5Q236 -5 189 19T110 84T62 177T46 287Q46 353 67 416T127 533T216 628T326 692T448 715Q510 715 557 691T635 625T682 531T698 421Q698 356 677 294T618 177T530 82T420 18T298 -5ZM312 58Q378 58 435 89T536
173T603 288T628 416Q628 479 606 532T542 618T434 651Q368 651 310 621T209 538T142 422T117 293Q117 230 139 177T204 91T312 58ZM713 710L113 0H36L637 710H713Z" />
<glyph unicode="&#xd9;" horiz-adv-x="724" d="M298 -5Q216 -5 167 27T96 112T75 230Q75 260 78 290T89 352L165 710H234L158 352Q152 324 149 296T145 241Q145 190 160 149T211 83T309 58Q373 58 420 83T501 151T555 245T588 352L664 710H733L658 352Q643 280
614 216T540 102T436 24T298 -5ZM362 917H432L469 824L421 807L362 917Z" />
<glyph unicode="&#xda;" horiz-adv-x="724" d="M298 -5Q216 -5 167 27T96 112T75 230Q75 260 78 290T89 352L165 710H234L158 352Q152 324 149 296T145 241Q145 190 160 149T211 83T309 58Q373 58 420 83T501 151T555 245T588 352L664 710H733L658 352Q643 280
614 216T540 102T436 24T298 -5ZM479 807L437 824L513 917H584L479 807Z" />
<glyph unicode="&#xdb;" horiz-adv-x="724" d="M298 -5Q216 -5 167 27T96 112T75 230Q75 260 78 290T89 352L165 710H234L158 352Q152 324 149 296T145 241Q145 190 160 149T211 83T309 58Q373 58 420 83T501 151T555 245T588 352L664 710H733L658 352Q643 280
614 216T540 102T436 24T298 -5ZM351 823L464 908H513L589 823L547 803L479 866L385 803L351 823Z" />
<glyph unicode="&#xdc;" horiz-adv-x="724" d="M298 -5Q216 -5 167 27T96 112T75 230Q75 260 78 290T89 352L165 710H234L158 352Q152 324 149 296T145 241Q145 190 160 149T211 83T309 58Q373 58 420 83T501 151T555 245T588 352L664 710H733L658 352Q643 280
614 216T540 102T436 24T298 -5ZM368 820L388 914H446L426 820H368ZM512 820L532 914H589L570 820H512Z" />
<glyph unicode="&#xdd;" horiz-adv-x="607" d="M257 266L91 710H168L305 328L605 710H681L325 264L269 0H200L257 266ZM409 807L367 824L443 917H514L409 807Z" />
<glyph unicode="&#xde;" horiz-adv-x="579" d="M175 710H244L214 569H407Q457 569 492 543T546 474T565 384Q565 336 546 290T492 205T413 144T317 121H119L93 0H24L175 710ZM328 184Q363 184 393 201T446 246T482 309T495 377Q495 413 482 442T446 489T390 507H201L132
184H328Z" />
<glyph unicode="&#xdf;" horiz-adv-x="529" d="M177 57Q244 58 295 79T376 141T405 244Q405 300 372 334T278 368H260L274 430H291Q329 430 361 447T412 496T431 565Q431 608 404 631T336 654Q296 654 264 634T211 581T181 505L74 0H9L118 515Q131 574 165 619T247
689T352 714Q418 714 458 677T499 582Q499 541 480 503T429 438T363 403Q419 390 447 348T475 248Q475 188 452 142T387 64T288 14T163 -6L177 57Z" />
<glyph unicode="&#xe0;" horiz-adv-x="598" d="M210 -10Q153 -10 111 20T47 100T25 208Q25 270 48 327T112 430T205 503T314 530Q377 530 418 496T476 412L500 521H568L476 89Q475 86 475 83T474 76Q474 60 493 60L480 0Q472 -1 466 -2T453 -3Q430 -2 419 9T407
37Q407 43 408 50T411 69T418 101Q378 50 322 20T210 -10ZM238 50Q263 50 291 60T347 87T395 129T427 179L460 340Q456 376 436 405T386 452T320 470Q275 470 235 448T164 389T114 308T96 218Q96 172 114 134T163 73T238 50ZM272 730H342L379 637L331 620L272 730Z"
/>
<glyph unicode="&#xe1;" horiz-adv-x="598" d="M210 -10Q153 -10 111 20T47 100T25 208Q25 270 48 327T112 430T205 503T314 530Q377 530 418 496T476 412L500 521H568L476 89Q475 86 475 83T474 76Q474 60 493 60L480 0Q472 -1 466 -2T453 -3Q430 -2 419 9T407
37Q407 43 408 50T411 69T418 101Q378 50 322 20T210 -10ZM238 50Q263 50 291 60T347 87T395 129T427 179L460 340Q456 376 436 405T386 452T320 470Q275 470 235 448T164 389T114 308T96 218Q96 172 114 134T163 73T238 50ZM389 620L347 637L423 730H494L389 620Z"
/>
<glyph unicode="&#xe2;" horiz-adv-x="598" d="M210 -10Q153 -10 111 20T47 100T25 208Q25 270 48 327T112 430T205 503T314 530Q377 530 418 496T476 412L500 521H568L476 89Q475 86 475 83T474 76Q474 60 493 60L480 0Q472 -1 466 -2T453 -3Q430 -2 419 9T407
37Q407 43 408 50T411 69T418 101Q378 50 322 20T210 -10ZM238 50Q263 50 291 60T347 87T395 129T427 179L460 340Q456 376 436 405T386 452T320 470Q275 470 235 448T164 389T114 308T96 218Q96 172 114 134T163 73T238 50ZM260 636L373 721H422L498 636L456 616L388
679L294 616L260 636Z" />
<glyph unicode="&#xe3;" horiz-adv-x="598" d="M210 -10Q153 -10 111 20T47 100T25 208Q25 270 48 327T112 430T205 503T314 530Q377 530 418 496T476 412L500 521H568L476 89Q475 86 475 83T474 76Q474 60 493 60L480 0Q472 -1 466 -2T453 -3Q430 -2 419 9T407
37Q407 43 408 50T411 69T418 101Q378 50 322 20T210 -10ZM238 50Q263 50 291 60T347 87T395 129T427 179L460 340Q456 376 436 405T386 452T320 470Q275 470 235 448T164 389T114 308T96 218Q96 172 114 134T163 73T238 50ZM437 638Q409 638 392 648T360 668T324
678Q304 678 291 668T273 645T267 630H225Q226 635 233 650T253 681T286 710T333 723Q352 723 366 717T391 702T415 688T445 681Q470 681 484 692T504 716T510 730H552Q551 725 544 711T523 679T488 650T437 638Z" />
<glyph unicode="&#xe4;" horiz-adv-x="598" d="M210 -10Q153 -10 111 20T47 100T25 208Q25 270 48 327T112 430T205 503T314 530Q377 530 418 496T476 412L500 521H568L476 89Q475 86 475 83T474 76Q474 60 493 60L480 0Q472 -1 466 -2T453 -3Q430 -2 419 9T407
37Q407 43 408 50T411 69T418 101Q378 50 322 20T210 -10ZM238 50Q263 50 291 60T347 87T395 129T427 179L460 340Q456 376 436 405T386 452T320 470Q275 470 235 448T164 389T114 308T96 218Q96 172 114 134T163 73T238 50ZM278 633L298 727H356L336 633H278ZM422
633L442 727H499L480 633H422Z" />
<glyph unicode="&#xe5;" horiz-adv-x="598" d="M210 -10Q153 -10 111 20T47 100T25 208Q25 270 48 327T112 430T205 503T314 530Q377 530 418 496T476 412L500 521H568L476 89Q475 86 475 83T474 76Q474 60 493 60L480 0Q472 -1 466 -2T453 -3Q430 -2 419 9T407
37Q407 43 408 50T411 69T418 101Q378 50 322 20T210 -10ZM238 50Q263 50 291 60T347 87T395 129T427 179L460 340Q456 376 436 405T386 452T320 470Q275 470 235 448T164 389T114 308T96 218Q96 172 114 134T163 73T238 50ZM312 652Q312 686 338 708T399 730Q427
730 442 716T457 677Q457 643 432 621T370 599Q344 599 328 614T312 652ZM393 703Q375 703 361 691T346 657Q346 644 354 635T377 626Q393 626 409 639T425 672Q425 686 416 694T393 703Z" />
<glyph unicode="&#xe6;" horiz-adv-x="887" d="M134 -10Q68 -10 32 28T-4 123Q-4 178 28 219T117 285T240 309Q273 309 305 304T362 289Q370 315 380 335T394 380Q394 423 366 451T283 479Q246 479 203 463T111 417L98 462Q209 530 301 530Q360 530 398 503T448
426Q490 473 545 501T660 530Q722 530 766 502T834 425T858 316Q858 285 853 265T843 236H416Q415 228 415 220T414 202Q414 156 432 120T484 63T561 42Q610 42 657 68T731 136L787 120Q764 83 726 53T643 7T548 -10Q483 -10 436 21T367 105Q338 64 296 39T210
2T134 -10ZM161 42Q188 42 218 50T276 74T324 108T352 150Q350 159 349 169T348 191Q348 205 349 219T353 246Q328 256 299 261T242 266Q191 266 150 250T86 204T63 136Q63 111 73 90T106 55T161 42ZM789 282Q791 292 791 302T792 322Q792 366 775 401T726 457T648
477Q598 477 553 452T474 383T425 282H789Z" />
<glyph unicode="&#xe7;" horiz-adv-x="526" d="M225 -10Q162 -10 117 20T49 100T25 211Q25 274 49 331T115 433T214 504T336 530Q408 530 453 497T513 406L443 385Q430 426 400 448T326 470Q282 470 241 451T167 396T115 316T95 220Q95 171 112 133T161 73T233
50Q265 50 297 62T356 94T394 139L457 119Q436 82 399 53T317 7T225 -10ZM185 -180Q162 -180 138 -173T91 -152L119 -113Q135 -123 149 -129T185 -135Q218 -135 238 -118T258 -71Q258 -50 247 -33T215 0L245 19Q269 -1 284 -23T299 -75Q299 -108 285 -131T245 -167T185
-180Z" />
<glyph unicode="&#xe8;" horiz-adv-x="535" d="M229 -10Q165 -10 120 19T51 99T26 211Q26 273 48 330T112 432T210 503T332 530Q381 530 420 514T481 467T504 389Q505 310 437 273T227 235Q196 235 159 236T73 242L83 290Q131 287 165 286T230 284Q310 284 356
296T422 333T442 389Q442 420 426 439T385 468T327 477Q275 477 233 455T159 395T112 310T95 214Q96 167 112 128T160 66T241 42Q293 42 338 68T410 139L466 122Q443 83 406 54T324 7T229 -10ZM252 730H322L359 637L311 620L252 730Z" />
<glyph unicode="&#xe9;" horiz-adv-x="535" d="M229 -10Q165 -10 120 19T51 99T26 211Q26 273 48 330T112 432T210 503T332 530Q381 530 420 514T481 467T504 389Q505 310 437 273T227 235Q196 235 159 236T73 242L83 290Q131 287 165 286T230 284Q310 284 356
296T422 333T442 389Q442 420 426 439T385 468T327 477Q275 477 233 455T159 395T112 310T95 214Q96 167 112 128T160 66T241 42Q293 42 338 68T410 139L466 122Q443 83 406 54T324 7T229 -10ZM370 620L328 637L404 730H475L370 620Z" />
<glyph unicode="&#xea;" horiz-adv-x="535" d="M229 -10Q165 -10 120 19T51 99T26 211Q26 273 48 330T112 432T210 503T332 530Q381 530 420 514T481 467T504 389Q505 310 437 273T227 235Q196 235 159 236T73 242L83 290Q131 287 165 286T230 284Q310 284 356
296T422 333T442 389Q442 420 426 439T385 468T327 477Q275 477 233 455T159 395T112 310T95 214Q96 167 112 128T160 66T241 42Q293 42 338 68T410 139L466 122Q443 83 406 54T324 7T229 -10ZM241 636L354 721H403L479 636L437 616L369 679L275 616L241 636Z"
/>
<glyph unicode="&#xeb;" horiz-adv-x="535" d="M229 -10Q165 -10 120 19T51 99T26 211Q26 273 48 330T112 432T210 503T332 530Q381 530 420 514T481 467T504 389Q505 310 437 273T227 235Q196 235 159 236T73 242L83 290Q131 287 165 286T230 284Q310 284 356
296T422 333T442 389Q442 420 426 439T385 468T327 477Q275 477 233 455T159 395T112 310T95 214Q96 167 112 128T160 66T241 42Q293 42 338 68T410 139L466 122Q443 83 406 54T324 7T229 -10ZM258 633L278 727H336L316 633H258ZM402 633L422 727H479L460 633H402Z"
/>
<glyph unicode="&#xec;" horiz-adv-x="213" d="M119 521H187L77 0H9L119 521ZM355 730H425L462 637L414 620L355 730Z" />
<glyph unicode="&#xed;" horiz-adv-x="213" d="M119 521H187L77 0H9L119 521ZM192 620L150 637L226 730H297L192 620Z" />
<glyph unicode="&#xee;" horiz-adv-x="213" d="M119 521H187L77 0H9L119 521ZM315 645L428 730H477L553 645L511 625L443 688L349 625L315 645Z" />
<glyph unicode="&#xef;" horiz-adv-x="213" d="M119 521H187L77 0H9L119 521ZM330 636L350 730H408L388 636H330ZM474 636L494 730H551L532 636H474Z" />
<glyph unicode="&#xf0;" horiz-adv-x="579" d="M542 371Q542 283 514 213T439 93T335 17T217 -10Q159 -10 115 16T46 89T21 191Q21 247 45 298T111 388T204 451T310 474Q373 474 417 442T476 357Q477 373 477 388T474 420Q470 473 451 524T389 627T271 730H365Q433
682 471 621T525 495T542 371ZM91 199Q91 158 108 124T158 70T232 50Q274 50 314 68T386 118T436 189T455 272Q455 313 438 345T388 397T313 417Q271 417 231 400T160 352T110 282T91 199ZM554 683L443 620L420 612L289 536L274 567L402 640L423 646L539 713L554
683Z" />
<glyph unicode="&#xf1;" horiz-adv-x="559" d="M119 521H182L156 403Q184 441 222 469T305 514T392 530Q433 530 457 515T493 473T505 406Q505 383 502 358T492 305L428 0H360L422 291Q427 316 429 337T432 376Q432 423 413 445T354 468Q317 468 277 449T201 396T144
319L77 0H9L119 521ZM440 638Q412 638 395 648T363 668T327 678Q307 678 294 668T276 645T270 630H228Q229 635 236 650T256 681T289 710T336 723Q355 723 369 717T394 702T418 688T448 681Q473 681 487 692T507 716T513 730H555Q554 725 547 711T526 679T491 650T440
638Z" />
<glyph unicode="&#xf2;" horiz-adv-x="573" d="M226 -10Q158 -10 113 19T46 99T24 209Q24 275 48 333T115 435T212 505T329 530Q396 530 441 500T509 421T531 310Q531 244 507 186T441 84T343 15T226 -10ZM238 50Q280 50 320 68T391 121T442 200T461 300Q461 348
445 386T397 447T317 470Q275 470 235 451T164 398T113 318T94 218Q94 170 110 132T159 72T238 50ZM251 730H321L358 637L310 620L251 730Z" />
<glyph unicode="&#xf3;" horiz-adv-x="573" d="M226 -10Q158 -10 113 19T46 99T24 209Q24 275 48 333T115 435T212 505T329 530Q396 530 441 500T509 421T531 310Q531 244 507 186T441 84T343 15T226 -10ZM238 50Q280 50 320 68T391 121T442 200T461 300Q461 348
445 386T397 447T317 470Q275 470 235 451T164 398T113 318T94 218Q94 170 110 132T159 72T238 50ZM369 620L327 637L403 730H474L369 620Z" />
<glyph unicode="&#xf4;" horiz-adv-x="573" d="M226 -10Q158 -10 113 19T46 99T24 209Q24 275 48 333T115 435T212 505T329 530Q396 530 441 500T509 421T531 310Q531 244 507 186T441 84T343 15T226 -10ZM238 50Q280 50 320 68T391 121T442 200T461 300Q461 348
445 386T397 447T317 470Q275 470 235 451T164 398T113 318T94 218Q94 170 110 132T159 72T238 50ZM240 636L353 721H402L478 636L436 616L368 679L274 616L240 636Z" />
<glyph unicode="&#xf5;" horiz-adv-x="573" d="M226 -10Q158 -10 113 19T46 99T24 209Q24 275 48 333T115 435T212 505T329 530Q396 530 441 500T509 421T531 310Q531 244 507 186T441 84T343 15T226 -10ZM238 50Q280 50 320 68T391 121T442 200T461 300Q461 348
445 386T397 447T317 470Q275 470 235 451T164 398T113 318T94 218Q94 170 110 132T159 72T238 50ZM417 638Q389 638 372 648T340 668T304 678Q284 678 271 668T253 645T247 630H205Q206 635 213 650T233 681T266 710T313 723Q332 723 346 717T371 702T395 688T425
681Q450 681 464 692T484 716T490 730H532Q531 725 524 711T503 679T468 650T417 638Z" />
<glyph unicode="&#xf6;" horiz-adv-x="573" d="M226 -10Q158 -10 113 19T46 99T24 209Q24 275 48 333T115 435T212 505T329 530Q396 530 441 500T509 421T531 310Q531 244 507 186T441 84T343 15T226 -10ZM238 50Q280 50 320 68T391 121T442 200T461 300Q461 348
445 386T397 447T317 470Q275 470 235 451T164 398T113 318T94 218Q94 170 110 132T159 72T238 50ZM257 633L277 727H335L315 633H257ZM401 633L421 727H478L459 633H401Z" />
<glyph unicode="&#xf7;" horiz-adv-x="537" d="M234 399V490H293V399H234ZM234 74V164H293V74H234ZM62 254V311H465V254H62Z" />
<glyph unicode="&#xf8;" horiz-adv-x="573" d="M221 -10Q159 -10 115 19T48 99T24 208Q24 271 49 328T118 431T218 503T335 530Q397 530 440 501T507 421T531 311Q531 249 506 191T438 88T339 17T221 -10ZM233 50Q275 50 315 70T389 125T441 205T461 302Q461 350
444 387T395 447T322 470Q281 470 241 450T167 394T114 313T94 216Q94 169 111 132T160 72T233 50ZM105 81L126 56L71 -1H25L105 81ZM110 84L427 462L451 442L130 61L110 84ZM431 466L484 523H530L457 446L431 466Z" />
<glyph unicode="&#xf9;" horiz-adv-x="569" d="M159 -10Q37 -10 37 124Q37 144 40 166T48 215L114 521H181L119 227Q109 182 109 149Q109 50 195 50Q233 50 271 67T343 117T401 193L471 521H539L448 96Q447 90 446 85T445 77Q445 60 464 60L451 0Q443 -1 436 -2T423
-2Q402 -1 391 9T380 37Q380 42 381 49T385 73T394 118Q348 58 286 24T159 -10ZM258 730H328L365 637L317 620L258 730Z" />
<glyph unicode="&#xfa;" horiz-adv-x="569" d="M159 -10Q37 -10 37 124Q37 144 40 166T48 215L114 521H181L119 227Q109 182 109 149Q109 50 195 50Q233 50 271 67T343 117T401 193L471 521H539L448 96Q447 90 446 85T445 77Q445 60 464 60L451 0Q443 -1 436 -2T423
-2Q402 -1 391 9T380 37Q380 42 381 49T385 73T394 118Q348 58 286 24T159 -10ZM380 620L338 637L414 730H485L380 620Z" />
<glyph unicode="&#xfb;" horiz-adv-x="569" d="M159 -10Q37 -10 37 124Q37 144 40 166T48 215L114 521H181L119 227Q109 182 109 149Q109 50 195 50Q233 50 271 67T343 117T401 193L471 521H539L448 96Q447 90 446 85T445 77Q445 60 464 60L451 0Q443 -1 436 -2T423
-2Q402 -1 391 9T380 37Q380 42 381 49T385 73T394 118Q348 58 286 24T159 -10ZM246 636L359 721H408L484 636L442 616L374 679L280 616L246 636Z" />
<glyph unicode="&#xfc;" horiz-adv-x="569" d="M159 -10Q37 -10 37 124Q37 144 40 166T48 215L114 521H181L119 227Q109 182 109 149Q109 50 195 50Q233 50 271 67T343 117T401 193L471 521H539L448 96Q447 90 446 85T445 77Q445 60 464 60L451 0Q443 -1 436 -2T423
-2Q402 -1 391 9T380 37Q380 42 381 49T385 73T394 118Q348 58 286 24T159 -10ZM264 633L284 727H342L322 633H264ZM408 633L428 727H485L466 633H408Z" />
<glyph unicode="&#xfd;" horiz-adv-x="485" d="M-36 -169Q6 -162 32 -151T79 -117T125 -57L158 -8L51 521H122L206 63L247 130Q290 200 320 253T371 350T407 435T434 521H501Q488 473 473 431T435 344T379 241T295 103L214 -26Q180 -81 151 -118T95 -178T38 -211T-27
-224L-36 -169ZM326 620L284 637L360 730H431L326 620Z" />
<glyph unicode="&#xfe;" horiz-adv-x="578" d="M-36 -213L160 710H229L168 429Q207 474 260 502T366 530Q424 530 465 500T529 419T551 311Q551 250 528 193T465 89T373 17T262 -10Q200 -10 159 24T100 108L32 -213H-36ZM256 50Q301 50 341 72T413 130T462 211T480
300Q480 347 463 385T413 447T337 470Q313 470 285 460T229 432T180 390T149 341L115 181Q122 144 141 115T190 68T256 50Z" />
<glyph unicode="&#xff;" horiz-adv-x="485" d="M-36 -169Q6 -162 32 -151T79 -117T125 -57L158 -8L51 521H122L206 63L247 130Q290 200 320 253T371 350T407 435T434 521H501Q488 473 473 431T435 344T379 241T295 103L214 -26Q180 -81 151 -118T95 -178T38 -211T-27
-224L-36 -169ZM210 633L230 727H288L268 633H210ZM354 633L374 727H431L412 633H354Z" />
<glyph unicode="&#x2013;" horiz-adv-x="548" d="M51 241L64 304H484L471 241H51Z" />
<glyph unicode="&#x2014;" horiz-adv-x="862" d="M51 241L64 304H798L785 241H51Z" />
<glyph unicode="&#x2018;" horiz-adv-x="193" d="M213 730L174 624H197L176 521H109L131 624L178 730H213Z" />
<glyph unicode="&#x2019;" horiz-adv-x="188" d="M115 521L153 628H130L152 730H219L197 628L150 521H115Z" />
<glyph unicode="&#x201a;" horiz-adv-x="225" d="M1 -104L39 0H15L37 102H104L82 0L36 -104H1Z" />
<glyph unicode="&#x201c;" horiz-adv-x="308" d="M213 730L174 624H197L176 521H109L131 624L178 730H213ZM327 730L289 624H312L291 521H224L245 624L293 730H327Z" />
<glyph unicode="&#x201d;" horiz-adv-x="303" d="M230 521L268 628H245L266 730H333L312 628L265 521H230ZM115 521L153 628H130L152 730H219L197 628L150 521H115Z" />
<glyph unicode="&#x201e;" horiz-adv-x="341" d="M1 -104L39 0H15L37 102H104L82 0L36 -104H1ZM116 -104L154 0H131L153 102H220L197 0L151 -104H116Z" />
<glyph unicode="&#x2022;" horiz-adv-x="341" d="M266 361Q266 333 251 309T211 271T159 256Q130 256 111 277T91 330Q91 358 106 382T146 420T198 435Q229 435 247 413T266 361Z" />
<glyph unicode="&#x2039;" horiz-adv-x="339" d="M36 276L310 454L298 395L88 259L240 125L227 66L28 239L36 276Z" />
<glyph unicode="&#x203a;" horiz-adv-x="339" d="M285 239L11 66L24 125L234 259L82 395L94 454L292 276L285 239Z" />
</font>
</defs>
</svg>
